TIN TÀI TRỢ.

[MF-FShare] Thuyết Minh Series Chúa Tể Của Những Chiếc Nhẫn mHD VIE BluRay x264-EPiK

  • 0 Lượt chia sẻ
  • 3.25K Lượt đọc
  • 1 Trả lời

Luôn tự hào là nguồn thông tin và kiến thức đáng tin cậy dành cho phụ nữ trưởng thành.

Theo dõi Webtretho

Đến trả lời mới nhất
    • 55 Bài viết

    • 7 Được cảm ơn

    #1
    4E7E_4DEF801B

    The Lord of the Rings The Fellowship of the Ring Extended Edition 2001 mHD VIE Blu-ray x264-EPiK

    Code:
    Format                           : Matroska
    File size                        : 3.94 GiB
    Duration                         : 3h 48mn
    Overall bit rate                 : 2 471 Kbps
    Encoded date                     : UTC 2011-07-18 03:56:41
    Writing application              : mkvmerge v4.8.0 ('I Got The...') built on May 24 2011 03:12:58
    Writing library                  : libebml v1.2.0 + libmatroska v1.1.0
    
    Video
    ID                               : 1
    Format                           : AVC
    Format/Info                      : Advanced Video Codec
    Format profile                   : High@L4.1
    Format settings, CABAC           : Yes
    Format settings, ReFrames        : 6 frames
    Muxing mode                      : Header stripping
    Codec ID                         : V_MPEG4/ISO/AVC
    Duration                         : 3h 48mn
    Bit rate                         : 1 782 Kbps
    Width                            : 1 280 pixels
    Height                           : 534 pixels
    Display aspect ratio             : 2.40:1
    Frame rate                       : 23.976 fps
    Color space                      : YUV
    Chroma subsampling               : 4:2:0
    Bit depth                        : 8 bits
    Scan type                        : Progressive
    Bits/(Pixel*Frame)               : 0.109
    Stream size                      : 2.84 GiB (72%)
    Title                            : EPiK ~ All.hdvnbits.org
    Writing library                  : x264 core 115 r2008 4c552d8
    Encoding settings                : cabac=1 / ref=6 / deblock=1:-3:-3 / analyse=0x3:0x113 / me=umh / subme=9 / psy=1 / psy_rd=0.80:0.00 / mixed_ref=1 / me_range=16 / chroma_me=1 / trellis=2 / 8x8dct=1 / cqm=0 / deadzone=21,11 / fast_pskip=0 / chroma_qp_offset=-2 / threads=12 / sliced_threads=0 / nr=0 / decimate=0 / interlaced=0 / bluray_compat=0 / constrained_intra=0 / bframes=6 / b_pyramid=2 / b_adapt=2 / b_bias=0 / direct=3 / weightb=1 / open_gop=0 / weightp=2 / keyint=250 / keyint_min=23 / scenecut=40 / intra_refresh=0 / rc_lookahead=40 / rc=crf / mbtree=1 / crf=21.0 / qcomp=0.60 / qpmin=0 / qpmax=69 / qpstep=4 / ip_ratio=1.40 / aq=1:0.80
    Language                         : English
    
    Audio
    ID                               : 2
    Format                           : AC-3
    Format/Info                      : Audio Coding 3
    Mode extension                   : CM (complete main)
    Muxing mode                      : Header stripping
    Codec ID                         : A_AC3
    Duration                         : 3h 48mn
    Bit rate mode                    : Constant
    Bit rate                         : 640 Kbps
    Channel(s)                       : 6 channels
    Channel positions                : Front: L C R, Side: L R, LFE
    Sampling rate                    : 48.0 KHz
    Bit depth                        : 16 bits
    Compression mode                 : Lossy
    Stream size                      : 1.02 GiB (26%)
    Title                            : EPiK ~ All.hdvnbits.org
    Language                         : Vietnamese

    The Lord of the Rings The Two Towers 2002 Extended mHD VIE BluRay x264-EPiK

    Code:
    Format                           : Matroska
    File size                        : 5.12 GiB
    Duration                         : 3h 55mn
    Overall bit rate                 : 3 112 Kbps
    Encoded date                     : UTC 2011-07-18 04:00:07
    Writing application              : mkvmerge v4.8.0 ('I Got The...') built on May 24 2011 03:12:58
    Writing library                  : libebml v1.2.0 + libmatroska v1.1.0
    
    Video
    ID                               : 1
    Format                           : AVC
    Format/Info                      : Advanced Video Codec
    Format profile                   : High@L4.1
    Format settings, CABAC           : Yes
    Format settings, ReFrames        : 11 frames
    Muxing mode                      : Header stripping
    Codec ID                         : V_MPEG4/ISO/AVC
    Duration                         : 3h 55mn
    Bit rate                         : 2 410 Kbps
    Width                            : 1 280 pixels
    Height                           : 536 pixels
    Display aspect ratio             : 2.40:1
    Frame rate                       : 23.976 fps
    Color space                      : YUV
    Chroma subsampling               : 4:2:0
    Bit depth                        : 8 bits
    Scan type                        : Progressive
    Bits/(Pixel*Frame)               : 0.147
    Stream size                      : 3.96 GiB (77%)
    Title                            : EPiK ~ All.hdvnbits.org
    Writing library                  : x264 core 116 r2019 9cc407d
    Encoding settings                : cabac=1 / ref=11 / deblock=1:-3:-3 / analyse=0x3:0x113 / me=umh / subme=9 / psy=1 / psy_rd=0.80:0.00 / mixed_ref=1 / me_range=16 / chroma_me=1 / trellis=2 / 8x8dct=1 / cqm=0 / deadzone=21,11 / fast_pskip=0 / chroma_qp_offset=-2 / threads=12 / sliced_threads=0 / nr=0 / decimate=0 / interlaced=0 / bluray_compat=0 / constrained_intra=0 / bframes=6 / b_pyramid=2 / b_adapt=2 / b_bias=0 / direct=3 / weightb=1 / open_gop=0 / weightp=2 / keyint=250 / keyint_min=23 / scenecut=40 / intra_refresh=0 / rc_lookahead=40 / rc=crf / mbtree=1 / crf=21.0 / qcomp=0.60 / qpmin=0 / qpmax=69 / qpstep=4 / ip_ratio=1.40 / aq=1:0.80
    Language                         : English
    
    Audio
    ID                               : 2
    Format                           : AC-3
    Format/Info                      : Audio Coding 3
    Mode extension                   : CM (complete main)
    Muxing mode                      : Header stripping
    Codec ID                         : A_AC3
    Duration                         : 3h 55mn
    Bit rate mode                    : Constant
    Bit rate                         : 640 Kbps
    Channel(s)                       : 6 channels
    Channel positions                : Front: L C R, Side: L R, LFE
    Sampling rate                    : 48.0 KHz
    Bit depth                        : 16 bits
    Compression mode                 : Lossy
    Stream size                      : 1.05 GiB (21%)
    Title                            : EPiK ~ All.hdvnbits.org
    Language                         : Vietnamese

    The Lord of the Rings The Return of the King 2003 Extended mHD VIE BluRay x264-EPiK

    Code:
    Format                           : Matroska
    File size                        : 6.03 GiB
    Duration                         : 4h 23mn
    Overall bit rate                 : 3 281 Kbps
    Encoded date                     : UTC 2011-07-18 04:00:22
    Writing application              : mkvmerge v4.8.0 ('I Got The...') built on May 24 2011 03:12:58
    Writing library                  : libebml v1.2.0 + libmatroska v1.1.0
    
    Video
    ID                               : 1
    Format                           : AVC
    Format/Info                      : Advanced Video Codec
    Format profile                   : High@L4.1
    Format settings, CABAC           : Yes
    Format settings, ReFrames        : 11 frames
    Muxing mode                      : Header stripping
    Codec ID                         : V_MPEG4/ISO/AVC
    Duration                         : 4h 23mn
    Bit rate                         : 2 576 Kbps
    Width                            : 1 280 pixels
    Height                           : 532 pixels
    Display aspect ratio             : 2.40:1
    Frame rate                       : 23.976 fps
    Color space                      : YUV
    Chroma subsampling               : 4:2:0
    Bit depth                        : 8 bits
    Scan type                        : Progressive
    Bits/(Pixel*Frame)               : 0.158
    Stream size                      : 4.74 GiB (79%)
    Title                            : EPiK ~ All.hdvnbits.org
    Writing library                  : x264 core 116 r2019 9cc407d
    Encoding settings                : cabac=1 / ref=11 / deblock=1:-3:-3 / analyse=0x3:0x113 / me=umh / subme=9 / psy=1 / psy_rd=0.80:0.00 / mixed_ref=1 / me_range=16 / chroma_me=1 / trellis=2 / 8x8dct=1 / cqm=0 / deadzone=21,11 / fast_pskip=0 / chroma_qp_offset=-2 / threads=12 / sliced_threads=0 / nr=0 / decimate=0 / interlaced=0 / bluray_compat=0 / constrained_intra=0 / bframes=6 / b_pyramid=2 / b_adapt=2 / b_bias=0 / direct=3 / weightb=1 / open_gop=0 / weightp=2 / keyint=250 / keyint_min=23 / scenecut=40 / intra_refresh=0 / rc_lookahead=40 / rc=crf / mbtree=1 / crf=21.0 / qcomp=0.60 / qpmin=0 / qpmax=69 / qpstep=4 / ip_ratio=1.40 / aq=1:0.80
    Language                         : English
    
    Audio
    ID                               : 2
    Format                           : AC-3
    Format/Info                      : Audio Coding 3
    Mode extension                   : CM (complete main)
    Muxing mode                      : Header stripping
    Codec ID                         : A_AC3
    Duration                         : 4h 23mn
    Bit rate mode                    : Constant
    Bit rate                         : 640 Kbps
    Channel(s)                       : 6 channels
    Channel positions                : Front: L C R, Side: L R, LFE
    Sampling rate                    : 48.0 KHz
    Bit depth                        : 16 bits
    Compression mode                 : Lossy
    Stream size                      : 1.18 GiB (20%)
    Title                            : EPiK ~ All.hdvnbits.org
    Language                         : Vietnamese
    scrs

    123
    456

    leech

    Code:
    http://www.mediafire.com/?x76oqy7pj36s6
    
    http://www.fshare.vn/folder/TA5GMDMKBT/
    
    http://all.hdvnbits.org/the_lord_of_the_rings_extended_trilogy_mhd_vie_bluray_x264_epik_t16997.html

  1. CHỦ ĐỀ NỔI BẬT


    • 7,859 Bài viết

    • 2,984 Được cảm ơn

    Thành viên tích cực 2018
    #2

BÀI TƯƠNG TỰ